Login
Username:
Password:
[Signup]
[Recover Account]


Browse Torrents

Poll


You must be logged in to view polls



Latest Torrents
Gringo 2018 V2 720...
- [Size: 1.01 GB]

Seth.Meyers.2018.0...
- [Size: 582.16 MB]

Vanderpump.Rules.S...
- [Size: 604.68 MB]

Teen.Mom.2.S08E21....
- [Size: 548.99 MB]

Teen.Mom.Young.and...
- [Size: 502.88 MB]


Torrent Details For "Deadpool 2 2018 720p HDTS x264 Dual Audio [Hindi - English] [MW]"

Deadpool 2 2018 720p HDTS x264 Dual Audio [Hindi - English] [MW]

Download this torrent | Magnet Download
Health:
Seeds: 1,992
Leechers: 2,543
Completed: 8,183 
Last Checked: 18-05-2018 06:23:05
External Torrent
Update Stats


Watch-Free-HD     Download

Poster
No poster


Watch-Free-HD     Download

Details
Name:Deadpool 2 2018 720p HDTS x264 Dual Audio [Hindi - English] [MW]
Description:

 


General
Format                                   : Matroska
Format version                           : Version 4 / Version 2
File size                                : 877 MiB
Duration                                 : 1 h 49 min
Overall bit rate                         : 1 120 kb/s

Video
ID                                       : 1
Format                                   : AVC
Format/Info                              : Advanced Video Codec
Format profile                           : [email protected]
Format settings                          : CABAC / 4 Ref Frames
Format settings, CABAC                   : Yes
Format settings, RefFrames               : 4 frames
Codec ID                                 : V_MPEG4/ISO/AVC
Duration                                 : 1 h 49 min
Bit rate                                 : 900 kb/s
Width                                    : 1 280 pixels
Height                                   : 510 pixels
Display aspect ratio                     : 2.510
Frame rate mode                          : Constant
Frame rate                               : 29.970 (30000/1001) FPS
Color space                              : YUV
Chroma subsampling                       : 4:2:0
Bit depth                                : 8 bits
Scan type                                : Progressive
Bits/(Pixel*Frame)                       : 0.046
Stream size                              : 700 MiB (80%)
Writing library                          : x264 core 155 r2893 b00bcaf
Default                                  : Yes
Forced                                   : No

Audio #1
ID                                       : 2
Format                                   : AAC
Format/Info                              : Advanced Audio Codec
Format profile                           : LC
Codec ID                                 : A_AAC-2
Duration                                 : 1 h 49 min
Bit rate                                 : 128 kb/s
Channel(s)                               : 2 channels
Channel positions                        : Front: L R
Sampling rate                            : 48.0 kHz
Frame rate                               : 46.875 FPS (1024 SPF)
Compression mode                         : Lossy
Stream size                              : 100 MiB (11%)
Language                                 : Hindi
Default                                  : No
Forced                                   : No

Audio #2
ID                                       : 3
Format                                   : AAC
Format/Info                              : Advanced Audio Codec
Format profile                           : HE-AAC / LC
Format settings                          : Explicit
Codec ID                                 : A_AAC-2
Duration                                 : 1 h 49 min
Bit rate                                 : 96.0 kb/s
Channel(s)                               : 2 channels
Channel positions                        : Front: L R
Sampling rate                            : 48.0 kHz / 24.0 kHz
Frame rate                               : 23.438 FPS (1024 SPF)
Compression mode                         : Lossy
Stream size                              : 74.1 MiB (8%)
Language                                 : English
Default                                  : Yes
Forced                                   : No





 
 
 
 
 
 
 

Category:Movies > Hollywood Dub
Lang:Hindi
Total Size:876.91 MB
Info Hash:837298c198c82d87150d5092eeb283449f0f60ae
Added By:Freaky
Date Added:17-05-2018 13:38:16
Downloads:568

Download Torrent

Ratings:Not Yet Rated (Log in to rate it)


Tracker:
udp://tracker.coppersurfer.tk:6969/announce


File List: 


Comments

<< Previous      Next >>
1 - 1

[Report] Posted: 17-05-2018 at 16:56:02
ladlaprince



Uploaded: 0.00 B
Downloaded: 0.00 B
Ratio: ---

Thanks Again

1 - 1
<< Previous      Next >>


Powered by 10 Hamsters v2-svn -|- Page Generated In 1.028524 secs.
-|- RSS Feed -|- Feed Info
Theme By: Nikkbu