Login
Username:
Password:
[Signup]
[Recover Account]


Browse Torrents

Poll


You must be logged in to view polls



Latest Torrents
You.Me.Her.S03E09....
- [Size: 144.56 MB]

18+.Girl.Lost.2018...
- [Size: 919.82 MB]

Billboard.Music.Aw...
- [Size: 2.50 GB]

Billboard.Music.Aw...
- [Size: 1.83 GB]

Desus.And.Mero.201...
- [Size: 194.95 MB]


Torrent Details For "Pacific Rim 2 Uprising 2018 720p WEB-DL x264 Dual Audio [Hindi (Cleaned) - English 2.0] ESub [M..."

Pacific Rim 2 Uprising 2018 720p WEB-DL x264 Dual Audio [Hindi (Cleaned) - English 2.0] ESub [M...

Download this torrent | Magnet Download
Health:
Seeds: 326
Leechers: 915
Completed: 268 
Last Checked: 17-05-2018 11:44:39
External Torrent
Update Stats


Watch-Free-HD     Download

Poster
No poster


Watch-Free-HD     Download

Details
Name:Pacific Rim 2 Uprising 2018 720p WEB-DL x264 Dual Audio [Hindi (Cleaned) - English 2.0] ESub [M...
Description:

 


General
Format : Matroska
Format version : Version 4 / Version 2
File size : 1.24 GiB
Duration : 1 h 50 min
Overall bit rate : 1 599 kb/s

Video
ID : 1
Format : AVC
Format/Info : Advanced Video Codec
Format profile : [email protected]
Format settings : CABAC / 5 Ref Frames
Format settings, CABAC : Yes
Format settings, RefFrames : 5 frames
Codec ID : V_MPEG4/ISO/AVC
Duration : 1 h 50 min
Bit rate : 1 400 kb/s
Width : 1 280 pixels
Height : 532 pixels
Display aspect ratio : 2.40:1
Frame rate mode : Constant
Frame rate : 23.976 (24000/1001) FPS
Color space : YUV
Chroma subsampling : 4:2:0
Bit depth : 8 bits
Scan type : Progressive
Bits/(Pixel*Frame) : 0.086
Stream size : 1.06 GiB (86%)
Writing library : x264 core 155 r2893 b00bcaf
Default : Yes
Forced : No

Audio #1
ID : 3
Format : AAC
Format/Info : Advanced Audio Codec
Format profile : LC
Codec ID : A_AAC-2
Duration : 1 h 50 min
Bit rate : 128 kb/s
Channel(s) : 2 channels
Channel positions : Front: L R
Sampling rate : 48.0 kHz
Frame rate : 46.875 FPS (1024 SPF)
Compression mode : Lossy
Stream size : 101 MiB (8%)
Language : Hindi
Default : No
Forced : No

Audio #2
ID : 4
Format : AAC
Format/Info : Advanced Audio Codec
Format profile : HE-AAC / LC
Format settings : Explicit
Codec ID : A_AAC-2
Duration : 1 h 50 min
Bit rate : 96.0 kb/s
Channel(s) : 2 channels
Channel positions : Front: L R
Sampling rate : 48.0 kHz / 24.0 kHz
Frame rate : 23.438 FPS (1024 SPF)
Compression mode : Lossy
Stream size : 75.0 MiB (6%)
Language : English
Default : No
Forced : No

Text
ID : 2
Format : UTF-8
Codec ID : S_TEXT/UTF8
Codec ID/Info : UTF-8 Plain Text
Duration : 1 h 40 min
Bit rate : 57 b/s
Count of elements : 1127
Stream size : 42.3 KiB (0%)
Language : English
Default : Yes
Forced : No





             

Category:Movies > Hollywood Dub
Lang:Hindi
Total Size:1.24 GB
Info Hash:5003de2dce9446752e4a02dbfa21fa614340a7ae
Added By:Freaky
Date Added:17-05-2018 10:58:10
Downloads:452

Download Torrent

Ratings:Not Yet Rated (Log in to rate it)


Tracker:
udp://tracker.pirateparty.gr:6969/announce


File List: 


Comments

<< Previous      Next >>
1 - 1

[Report] Posted: 17-05-2018 at 16:51:17
ladlaprince



Uploaded: 0.00 B
Downloaded: 0.00 B
Ratio: ---

Thanks

1 - 1
<< Previous      Next >>


Powered by 10 Hamsters v2-svn -|- Page Generated In 2.228427 secs.
-|- RSS Feed -|- Feed Info
Theme By: Nikkbu