Login
Username:
Password:
[Signup]
[Recover Account]


Browse Torrents

Poll


You must be logged in to view polls



Latest Torrents
You.Me.Her.S03E09....
- [Size: 144.56 MB]

18+.Girl.Lost.2018...
- [Size: 919.82 MB]

Billboard.Music.Aw...
- [Size: 2.50 GB]

Billboard.Music.Aw...
- [Size: 1.83 GB]

Desus.And.Mero.201...
- [Size: 194.95 MB]


Torrent Details For "Red Sparrow (2018) 720p BluRay x264 Dual Audio [Hindi 5.1 + English 2.0] ESubs"

Red Sparrow (2018) 720p BluRay x264 Dual Audio [Hindi 5.1 + English 2.0] ESubs

Download this torrent | Magnet Download
Health:
Seeds: 62
Leechers: 268
Completed: 96 
Last Checked: 14-05-2018 05:29:00
External Torrent
Update Stats


Watch-Free-HD     Download

Poster


iMDB
Imdb Picture Title: Red Sparrow
Year: 2018
Runtime: 139 minutes
Votes: 5470
Rating: 6.5/10
Language: English, Russian
Country: USA
All Genres: Mystery, Thriller
Plot Outline: Ballerina Dominika Egorova is recruited to 'Sparrow School,' a Russian intelligence service where she is forced to use her body as a weapon. Her first mission, targeting a C.I.A. agent, threatens to unravel the security of both nations.
Tagline: Seductive. Deceptive. Deadly.
Director: Francis Lawrence
Writing By: Justin Haythe,Jason Matthews,
Produced By: Garrett Basch,Peter Chernin,Ildiko Kemeny,Cameron MacConomy,Mary McLaglen,David Minkowski,David Ready,Jenno Topping,Steven Zaillian,
Music: James Newton Howard
Cast:
Jennifer Lawrence as Dominika Egorova
Joel Edgerton as Nate Nash
Matthias Schoenaerts as Vanya Egorov
Charlotte Rampling as Matron
Mary-Louise Parker as Stephanie Boucher
Ciarán Hinds as Zakharov
Joely Richardson as Nina Egorova
Bill Camp as Marty Gable
Jeremy Irons as General Korchnoi
Thekla Reuten as Marta
Trailers:
Official Trailer
Official Trailer


Watch-Free-HD     Download

Details
Name:Red Sparrow (2018) 720p BluRay x264 Dual Audio [Hindi 5.1 + English 2.0] ESubs
Description:
[code][FORMAT]:…………………….[ Matroska
[ENCODER]:…………..[ KatMaster
[THANKS TO]:…………………..[ Rohit & Rajput[/code]


Movie Info:

Genres: Mystery, Thriller
Directed by: Francis Lawrence
Writers: Justin Haythe, Jason Matthews
Stars Cast: Jennifer Lawrence, Joel Edgerton, Matthias Schoenaerts
IMDb: http://www.imdb.com/title/tt2873282/
Language: Hindi [5.1] + English [2.0]

Video
ID                                       : 1
Format                                   : AVC
Format/Info                              : Advanced Video Codec
Format profile                           : [email protected]
Format settings                          : CABAC / 4 Ref Frames
Format settings, CABAC                   : Yes
Format settings, RefFrames               : 4 frames
Codec ID                                 : V_MPEG4/ISO/AVC
Duration                                 : 2 h 20 min
Bit rate                                 : 1 000 kb/s
Width                                    : 1 280 pixels
Height                                   : 536 pixels
Display aspect ratio                     : 2.40:1
Frame rate mode                          : Constant
Frame rate                               : 23.976 (24000/1001) FPS
Color space                              : YUV
Chroma subsampling                       : 4:2:0
Bit depth                                : 8 bits
Scan type                                : Progressive
Bits/(Pixel*Frame)                       : 0.061
Stream size                              : 980 MiB (75%)
Title                                    : Yes

Audio #1
ID                                       : 2
Format                                   : AAC
Format/Info                              : Advanced Audio Codec
Format profile                           : LC
Codec ID                                 : A_AAC-2
Duration                                 : 2 h 20 min
Bit rate                                 : 192 kb/s
Channel(s)                               : 6 channels
Channel positions                        : Front: L C R, Side: L R, LFE
Sampling rate                            : 48.0 kHz
Frame rate                               : 46.875 FPS (1024 SPF)
Compression mode                         : Lossy
Delay relative to video                  : -43 ms
Stream size                              : 193 MiB (15%)
Title                                    : Yes
Language                                 : Hindi

Audio #1
ID                                       : 2
Format                                   : AAC
Format/Info                              : Advanced Audio Codec
Format profile                           : LC
Codec ID                                 : A_AAC-2
Duration                                 : 2 h 20 min
Bit rate                                 : 192 kb/s
Channel(s)                               : 6 channels
Channel positions                        : Front: L C R, Side: L R, LFE
Sampling rate                            : 48.0 kHz
Frame rate                               : 46.875 FPS (1024 SPF)
Compression mode                         : Lossy
Delay relative to video                  : -43 ms
Stream size                              : 193 MiB (15%)
Title                                    : Yes
Language                                 : Hindi
Default                                  : Yes
Forced                                   : Yes

Audio #2
ID                                       : 3
Format                                   : AAC
Format/Info                              : Advanced Audio Codec
Format profile                           : LC
Codec ID                                 : A_AAC-2
Duration                                 : 2 h 20 min
Bit rate                                 : 128 kb/s
Channel(s)                               : 2 channels
Channel positions                        : Front: L R
Sampling rate                            : 48.0 kHz
Frame rate                               : 46.875 FPS (1024 SPF)
Compression mode                         : Lossy
Delay relative to video                  : -43 ms
Stream size                              : 128 MiB (10%)
Title                                    : Yes
Language                                 : English
Default                                  : No
Forced                                   : No


Screenshots:

 
 
 
 
 
 
Category:Movies > 720P Bluray
Lang:Hindi
Total Size:1.27 GB
Info Hash:a5bf90d1744a84de486ca1009a1176f313c14875
Added By:KatMaster
Date Added:13-05-2018 19:43:19
Downloads:74

Download Torrent

Ratings:Not Yet Rated (Log in to rate it)


Tracker:
udp://tracker.coppersurfer.tk:6969/announce


File List: 


Comments

No comments still posted

Powered by 10 Hamsters v2-svn -|- Page Generated In 0.516177 secs.
-|- RSS Feed -|- Feed Info
Theme By: Nikkbu