Login
Username:
Password:
[Signup]
[Recover Account]


Browse Torrents

Poll


You must be logged in to view polls



Latest Torrents
Into.the.Badlands....
- [Size: 392.78 MB]

Into.the.Badlands....
- [Size: 1.28 GB]

]Westworld.S02E05....
- [Size: 501.92 MB]

Deception.2018.S01...
- [Size: 269.64 MB]

Deception.2018.S01...
- [Size: 883.43 MB]


Torrent Details For "Koharam (Ramleela) (2013) Hindi Dubbed 720p HD x264 AAC [MovCR]"

Koharam (Ramleela) (2013) Hindi Dubbed 720p HD x264 AAC [MovCR]

Download this torrent | Magnet Download
Health:
Seeds: 327
Leechers: 201
Completed: 1,198 
Last Checked: 15-05-2018 16:33:58
External Torrent
Update Stats


Watch-Free-HD     Download

Poster


iMDB
Imdb Picture Title: Ramleela
Year: 2015
Runtime: 155 minutes
Votes: 8
Rating: 6.1/10
Language: Kannada
Country: India
All Genres: Comedy, Drama
Plot Outline: Ram helps a couple elope. It turns out that the girl is the daughter of a dreaded don. Through his misadventures, he falls in love with Chandrakala, who happens to be the don's other sister...
Director: Vijay Kiran
Writing By: Sreedhar Seepana,
Produced By: Soundarya Jagadish,
Music: Anoop Rubens
Plot:

Ram helps a couple elope. It turns out that the girl is the daughter of a dreaded don. Through his misadventures, he falls in love with Chandrakala, who happens to be the don's other sister. All hell breaks loose when he finds out this truth.


Cast:
Chiranjeevi Sarja as Ram
Amulya as Chandrakala
Sanjjana as
Urvashi as Baby
Sadhu Kokila as Sippy
Ravishankar Gowda as 'Boiling Star' Bablu
Rangayana Raghu as
Chikkanna as


Watch-Free-HD     Download

Details
Name:Koharam (Ramleela) (2013) Hindi Dubbed 720p HD x264 AAC [MovCR]
Description:
 Visit  www.movcr.com


 http://www.imdb.com/title/tt5365246/

 

General
Unique ID                   : 281911077662223729289866124878232648331 (0xD416193EA9CA61A85793725E3EB37A8B)
Complete name               : www.MovCR.com-Koharam (Ramleela) (2013) Hindi Dubbed 720p HD x264 AAC [MovCR].mkv
Format                      : Matroska
Format version              : Version 4 / Version 2
File size                   : 1.59 GiB
Duration                    : 2 h 29 min
Overall bit rate            : 1 528 kb/s
Movie name                  : www.MovCR.com
Encoded date                : UTC 2018-05-13 16:03:49
Writing application         : mkvmerge v23.0.0 ('The Bride Said No') 64-bit
Writing library             : libebml v1.3.6 + libmatroska v1.4.9

Video
ID                          : 1
Format                      : AVC
Format/Info                 : Advanced Video Codec
Format profile              : [email protected]
Format settings, CABAC      : Yes
Format settings, ReFrames   : 3 frames
Codec ID                    : V_MPEG4/ISO/AVC
Duration                    : 2 h 29 min
Bit rate                    : 1 398 kb/s
Width                       : 1 280 pixels
Height                      : 720 pixels
Display aspect ratio        : 16:9
Frame rate mode             : Constant
Frame rate                  : 25.000 FPS
Color space                 : YUV
Chroma subsampling          : 4:2:0
Bit depth                   : 8 bits
Scan type                   : Progressive
Bits/(Pixel*Frame)          : 0.061
Stream size                 : 1.46 GiB (91%)
Title                       : www.MovCR.com
Default                     : Yes
Forced                      : No
Color range                 : Limited
Color primaries             : BT.709
Transfer characteristics    : BT.709
Matrix coefficients         : BT.709

Audio
ID                          : 2
Format                      : AAC
Format/Info                 : Advanced Audio Codec
Format profile              : LC
Codec ID                    : A_AAC
Duration                    : 2 h 29 min
Bit rate                    : 128 kb/s
Channel(s)                  : 2 channels
Channel positions           : Front: L R
Sampling rate               : 44.1 kHz
Frame rate                  : 43.066 FPS (1024 spf)
Compression mode            : Lossy
Stream size                 : 137 MiB (8%)
Title                       : www.MovCR.com
Language                    : Hindi
Default                     : Yes
Forced                      : No



 
 
 
 
 
 
 
 
 
Category:Movies > South Dub
Lang:Hindi
Total Size:1.59 GB
Info Hash:17c10e66ac680df0c1a929494dfd7b2906cee236
Added By:Kingmaker
Date Added:13-05-2018 17:19:10
Downloads:754

Download Torrent

Ratings:Not Yet Rated (Log in to rate it)


Tracker:
udp://tracker.openbittorrent.com:80/announce

This Torrent also has backup trackers
URLSeedersLeechersCompleted
http://t.nyaatracker.com:80/announce7334
http://asnet.pw:2710/announce000
http://tracker.tfile.co:80/announce000
http://pt.lax.mx:80/announce000
http://tracker.bt-hash.com:443/announce000
http://grifon.info:80/announce000
http://retracker.spark-rostov.ru:80/announce000
http://tr.kxmp.cf:80/announce000
http://tracker.city9x.com:2710/announce237
http://tracker.tfile.me:80/announce000
http://retracker.telecom.by:80/announce000
http://tracker.electro-torrent.pl:80/announce320
http://open.kickasstracker.com:443/announce342
http://retracker.mgts.by:80/announce336
http://retracker.bashtel.ru:80/announce000
http://tracker.devil-torrents.pl:80/announce000
http://torrentsmd.eu:8080/announce000
http://ns349743.ip-91-121-106.eu:80/announce000
http://torrentsmd.me:8080/announce000
http://agusiq-torrents.pl:6969/announce3010
http://fxtt.ru:80/announce212


File List: 


Comments

No comments still posted

Powered by 10 Hamsters v2-svn -|- Page Generated In 1.320958 secs.
-|- RSS Feed -|- Feed Info
Theme By: Nikkbu