Login
Username:
Password:
[Signup]
[Recover Account]


Browse Torrents

Poll


You must be logged in to view polls



Latest Torrents
You.Me.Her.S03E09....
- [Size: 144.56 MB]

18+.Girl.Lost.2018...
- [Size: 919.82 MB]

Billboard.Music.Aw...
- [Size: 2.50 GB]

Billboard.Music.Aw...
- [Size: 1.83 GB]

Desus.And.Mero.201...
- [Size: 194.95 MB]


Torrent Details For "Green Room (2015) Dual Audio [Hindi 2.0 + English 2.0] 720p BluRay ESubs @ KatMaster"

Green Room (2015) Dual Audio [Hindi 2.0 + English 2.0] 720p BluRay ESubs @ KatMaster

Download this torrent | Magnet Download
Health:
Seeds: 12
Leechers: 23
Completed: 1,305 
Last Checked: 15-05-2018 18:29:56
External Torrent
Update Stats


Watch-Free-HD     Download

Poster


iMDB
Imdb Picture Title: Green Room
Year: 2015
Runtime: 95 minutes
Votes: 66763
Rating: 7.0/10
Language: English
Country: USA
All Genres: Crime, Horror, Thriller
Plot Outline: A punk rock band is forced to fight for survival after witnessing a murder at a neo-Nazi skinhead bar.
Tagline: Now. Whatever you saw or did. Is no longer my concern. But let's be clear. It won't end well.
Director: Jeremy Saulnier
Writing By: Jeremy Saulnier,
Produced By: Macon Blair,Daniel Hammond,Gabriel Hammond,Brian Johnston,Neil Kopp,Victor Moyers,Vincent Savino,Anish Savjani,
Music: Brooke Blair Will Blair
Plot:

A band straying into a secluded part of the Pacific Northwest stumbles onto a horrific act of violence. Because they are the only witnesses, they become the targets of a terrifying gang of skinheads who want to make sure all the evidence is eliminated.

- Written by Aymanati

In the Pacific Northwest, teenager Pat takes part of punk rock band, The Ain't Rights, at a night and drug club. Their tour to try and get famous fails badly with hatred. Unfortunately, for them, their tour eventually turns into something very nasty when they are witnesses at a crime scene. Since the notorious club owner, Darcy Banker, is now on the case of the incident, the Ain't Rights start to work together to try and escape the club alive and make it back to Washington DC-before Darcy finds them

A punk rock band is forced to fight for survival after witnessing a murder at a neo-Nazi skinhead bar.

- Written by Noah Orent
Cast:
Anton Yelchin as Pat
Joe Cole as Reece
Alia Shawkat as Sam
Callum Turner as Tiger
David W. Thompson as Tad
Mark Webber as Daniel
Macon Blair as Gabe
Eric Edelstein as Big Justin
Michael Draper as Stagehand
Andy Copeland as Stage Manager
Trailers:
IMDb Commentary With 'Green Room' Director Jeremy Saulnier
Green Room | Official Trailer 3 HD | A24
New Trailer
Green Room | Official Trailer 2 HD | A24
Teaser Trailer


Watch-Free-HD     Download

Details
Name:Green Room (2015) Dual Audio [Hindi 2.0 + English 2.0] 720p BluRay ESubs @ KatMaster
Description:
 

[code][FORMAT]:…………………….[ Matroska
[ENCODER]:…………..[ KatMaster[/code]

Movie Info:

Genres: Crime, Horror, Thriller
Directed by: Jeremy Saulnier
Writer: Jeremy Saulnier
Stars Cast: Anton Yelchin, Imogen Poots, Alia Shawkat
IMDb: http://www.imdb.com/title/tt4062536/
Language: Hindi + English

Video
ID                                       : 1
Format                                   : AVC
Format/Info                              : Advanced Video Codec
Format profile                           : [email protected]
Format settings                          : CABAC / 4 Ref Frames
Format settings, CABAC                   : Yes
Format settings, RefFrames               : 4 frames
Codec ID                                 : V_MPEG4/ISO/AVC
Duration                                 : 1 h 35 min
Bit rate                                 : 900 kb/s
Width                                    : 1 280 pixels
Height                                   : 534 pixels
Display aspect ratio                     : 2.40:1
Original display aspect ratio            : 2.40:1
Frame rate mode                          : Constant
Frame rate                               : 23.976 (24000/1001) FPS
Color space                              : YUV
Chroma subsampling                       : 4:2:0
Bit depth                                : 8 bits
Scan type                                : Progressive
Bits/(Pixel*Frame)                       : 0.055
Stream size                              : 611 MiB (64%)

Audio #1 (Hindi)
ID                                       : 2
Format                                   : AC-3
Format/Info                              : Audio Coding 3
Codec ID                                 : A_AC3
Duration                                 : 1 h 34 min
Bit rate mode                            : Constant
Bit rate                                 : 384 kb/s
Channel(s)                               : 6 channels
Channel positions                        : Front: L C R, Side: L R, LFE
Sampling rate                            : 48.0 kHz
Frame rate                               : 31.250 FPS (1536 SPF)
Bit depth                                : 16 bits
Compression mode                         : Lossy
Delay relative to video                  : -12 ms
Stream size                              : 261 MiB (27%)

Audio #2 (English)
ID                                       : 3
Format                                   : AAC
Format/Info                              : Advanced Audio Codec
Format profile                           : LC
Codec ID                                 : A_AAC-2
Duration                                 : 1 h 35 min
Bit rate                                 : 129 kb/s
Channel(s)                               : 2 channels
Channel positions                        : Front: L R
Sampling rate                            : 48.0 kHz
Frame rate                               : 46.875 FPS (1024 SPF)
Compression mode                         : Lossy
Delay relative to video                  : -43 ms
Stream size                              : 87.5 MiB (9%)

Screenshots:






Category:Movies > Hollywood Dub
Lang:Hindi
Total Size:961.09 MB
Info Hash:3b90089ebb545e25c43d914bdcc2f46198e6fb41
Added By:KatMaster
Date Added:23-04-2018 15:46:51
Downloads:306

Download Torrent

Ratings:Not Yet Rated (Log in to rate it)


Tracker:
udp://tracker.coppersurfer.tk:6969/announce


File List: 


Comments

No comments still posted

Powered by 10 Hamsters v2-svn -|- Page Generated In 0.588234 secs.
-|- RSS Feed -|- Feed Info
Theme By: Nikkbu