Login
Username:
Password:
[Signup]
[Recover Account]


Browse Torrents

Poll


You must be logged in to view polls



Latest Torrents
Into.the.Badlands....
- [Size: 392.78 MB]

Into.the.Badlands....
- [Size: 1.28 GB]

]Westworld.S02E05....
- [Size: 501.92 MB]

Deception.2018.S01...
- [Size: 269.64 MB]

Deception.2018.S01...
- [Size: 883.43 MB]


Torrent Details For "My.Daddy.Is.in.Heaven.2017.HDRip.XviD.AC3.LLG"

My.Daddy.Is.in.Heaven.2017.HDRip.XviD.AC3.LLG

Download this torrent | Magnet Download
Health:
Seeds: 4
Leechers: 5
Completed:
Last Checked: 23-04-2018 15:39:42
External Torrent
Update Stats


Watch-Free-HD     Download

Poster
No poster


iMDB
Imdb Picture Title: My Daddy's in Heaven
Year: 2017
Runtime: 92 minutes
Votes: 31
Rating: 5.5/10
Language: English
Country: USA
All Genres: Comedy, Drama, Family
Plot Outline: Becca, Adam and their 5-year-old daughter Acie are a perfect family until a tragic accident during a 4th of July celebration kills their father. Struggling with grief, Becky decides she ...
Tagline: One Mother Must Find the Strength to Rise Again
Director: Waymon Boone
Writing By: Waymon Boone,Joseph Nasser,Noelle Nelson,
Produced By: Dureyshevar,Jeff Faehnle,Nat Mundel,Jack Nasser,Jacob Nasser,Joseph Nasser,
Music: Kent Rock
Cast:
Lee Benton as Madge
Corbin Bernsen as Vernon
Jenn Gotzon Chandler as Becca Smith
Jim E. Chandler as Nick
Mark Famiglietti as Bucky
Brandon Firby as Male Country Dancer
Lane Garrison as Adam Smith
Dustin Harnish as Jeff
Jake Jacobson as Earl
Jill Morrison as June
Trailers:
My Daddys in Heaven


Watch-Free-HD     Download

Details
Name:My.Daddy.Is.in.Heaven.2017.HDRip.XviD.AC3.LLG
Description:




******************************Thumbnail:**********************

 

******************************Screenshots:********************

 Screenshot 1

 Screenshot 2

 Screenshot 3

 Screenshot 4

 Screenshot 5

 Screenshot 6

 Screenshot 7

 Screenshot 8

 Screenshot 9

 Screenshot 0

**************************************************************

Complete name                            : My.Daddy.Is.in.Heaven.2017.HDRip.XviD.AC3.LLG.mp4
Format                                   : MPEG-4
Format profile                           : Base Media
Codec ID                                 : isom (isom/iso2/avc1/mp41)
File size                                : 991 MiB
Duration                                 : 1 h 35 min
Overall bit rate                         : 1 456 kb/s
Writing application                      : Lavf57.56.101

Video
ID                                       : 1
Format                                   : AVC
Format/Info                              : Advanced Video Codec
Format profile                           : [email protected]
Format settings                          : CABAC / 4 Ref Frames
Format settings, CABAC                   : Yes
Format settings, RefFrames               : 4 frames
Codec ID                                 : avc1
Codec ID/Info                            : Advanced Video Coding
Duration                                 : 1 h 35 min
Bit rate                                 : 1 200 kb/s
Width                                    : 720 pixels
Height                                   : 400 pixels
Display aspect ratio                     : 16:9
Frame rate mode                          : Constant
Frame rate                               : 23.976 (23976/1000) FPS
Color space                              : YUV
Chroma subsampling                       : 4:2:0
Bit depth                                : 8 bits
Scan type                                : Progressive
Bits/(Pixel*Frame)                       : 0.174
Stream size                              : 814 MiB (82%)

Audio
ID                                       : 2
Format                                   : AC-3
Format/Info                              : Audio Coding 3
Codec ID                                 : ac-3
Duration                                 : 1 h 35 min
Bit rate mode                            : Constant
Bit rate                                 : 256 kb/s
Channel(s)                               : 6 channels
Channel positions                        : Front: L C R, Side: L R, LFE
Sampling rate                            : 48.0 kHz
Frame rate                               : 31.250 FPS (1536 SPF)
Bit depth                                : 16 bits
Compression mode                         : Lossy
Stream size                              : 174 MiB (18%)
Service kind                             : Complete Main
Default                                  : Yes
Alternate group                          : 1

Category:Movies > HDRips
Lang:English  English
Total Size:1,014.53 MB
Info Hash:bc5321f498f8e320b3b142364edcccb5c6a16b55
Added By:LifeLongg
Date Added:23-04-2018 06:39:34
Downloads:63

Download Torrent

Ratings:Not Yet Rated (Log in to rate it)


Tracker:
udp://tracker.openbittorrent.com:80/announce


File List: 


Comments

No comments still posted

Powered by 10 Hamsters v2-svn -|- Page Generated In 2.127170 secs.
-|- RSS Feed -|- Feed Info
Theme By: Nikkbu