Login
Username:
Password:
[Signup]
[Recover Account]


Browse Torrents

Poll


You must be logged in to view polls



Latest Torrents
Desus.And.Mero.201...
- [Size: 195.05 MB]

Bleeding Steel (20...
- [Size: 1.58 GB]

Annabelle: Creatio...
- [Size: 1.04 GB]

Chicago.Fire.S06E1...
- [Size: 247.34 MB]

Chicago.Fire.S06E1...
- [Size: 821.63 MB]


Torrent Details For "Negative.2017.720p.AMZN.WEB-DL.AAC.LLG"

Negative.2017.720p.AMZN.WEB-DL.AAC.LLG

Download this torrent | Magnet Download
Health:
Seeds: 0
Leechers: 0
Completed:
Last Checked: 17-04-2018 06:22:10
External Torrent
Update Stats


Watch-Free-HD     Download

Poster
No poster


iMDB
Imdb Picture Title: Negative
Year: 2017
Runtime: 99 minutes
Votes: 218
Rating: 4.4/10
Language: English
Country: USA
All Genres: Drama, Thriller
Plot Outline: After taking a picture of a woman on the street, amateur photographer Hollis is shocked when she knocks on his apartment door and threatens his life. Demanding that he and the photograph ...
Tagline: The truth is never black and white.
Director: Joshua Caldwell
Writing By: Adam Gaines,
Produced By: William Borthwick,Joshua Caldwell,Daniel Locicero,Tom Spriggs,
Music: Bill Brown
Cast:
Katia Winter as Natalie
Sebastian Roché as Rodney
Josh Randall as Graham
Karen Sours Albisua as Savannah
Simon Quarterman as Hollis
Marem Hassler as Camila
Joanna Sotomura as Abigail
Whitney Anderson as Candace
Miguel Pérez as Tony
Santiago Salviche as Ramon


Watch-Free-HD     Download

Details
Name:Negative.2017.720p.AMZN.WEB-DL.AAC.LLG
Description:




******************************Thumbnail:**********************

 

******************************Screenshots:********************

 Screenshot 1

 Screenshot 2

 Screenshot 3

 Screenshot 4

 Screenshot 5

 Screenshot 6

 Screenshot 7

 Screenshot 8

 Screenshot 9

 Screenshot 0

**************************************************************

Complete name                            : Negative.2017.720p.AMZN.WEB-DL.AAC.LLG.mp4
Format                                   : MPEG-4
Format profile                           : Base Media
Codec ID                                 : isom (isom/iso2/avc1/mp41)
File size                                : 677 MiB
Duration                                 : 1 h 39 min
Overall bit rate                         : 954 kb/s
Writing application                      : Lavf57.56.101

Video
ID                                       : 1
Format                                   : AVC
Format/Info                              : Advanced Video Codec
Format profile                           : [email protected]
Format settings                          : CABAC / 4 Ref Frames
Format settings, CABAC                   : Yes
Format settings, RefFrames               : 4 frames
Codec ID                                 : avc1
Codec ID/Info                            : Advanced Video Coding
Duration                                 : 1 h 39 min
Bit rate                                 : 900 kb/s
Width                                    : 1 280 pixels
Height                                   : 542 pixels
Display aspect ratio                     : 2.35:1
Frame rate mode                          : Constant
Frame rate                               : 23.976 (23976/1000) FPS
Color space                              : YUV
Chroma subsampling                       : 4:2:0
Bit depth                                : 8 bits
Scan type                                : Progressive
Bits/(Pixel*Frame)                       : 0.054
Stream size                              : 627 MiB (93%)

Audio
ID                                       : 2
Format                                   : AAC
Format/Info                              : Advanced Audio Codec
Format profile                           : LC
Codec ID                                 : mp4a-40-2
Duration                                 : 1 h 39 min
Bit rate mode                            : Constant
Bit rate                                 : 64.6 kb/s
Channel(s)                               : 2 channels
Channel positions                        : Front: L R
Sampling rate                            : 48.0 kHz
Frame rate                               : 46.875 FPS (1024 SPF)
Compression mode                         : Lossy
Stream size                              : 45.8 MiB (7%)
Language                                 : English
Default                                  : Yes
Alternate group                          : 1

Category:Movies > WEB-HD
Lang:English  English
Total Size:708.26 MB
Info Hash:6f88fd365de664f980eac6b2c6d2fbf7669a2c0a
Added By:LifeLongg
Date Added:17-04-2018 06:22:10
Downloads:29

Download Torrent

Ratings:Not Yet Rated (Log in to rate it)


Tracker:
udp://tracker.openbittorrent.com:80/announce


File List: 


Comments

No comments still posted

Powered by 10 Hamsters v2-svn -|- Page Generated In 1.490879 secs.
-|- RSS Feed -|- Feed Info
Theme By: Nikkbu