Login
Username:
Password:
[Signup]
[Recover Account]


Browse Torrents

Poll


You must be logged in to view polls



Latest Torrents
12.Strong.2018.BDR...
- [Size: 811.85 MB]

Live.PD.S02E50.HDT...
- [Size: 1.21 GB]

Rangeela (1995) HD...
- [Size: 1.35 GB]

Please Stand By 20...
- [Size: 1.41 GB]

Niyoti (2016) Beng...
- [Size: 1.10 GB]


Torrent Details For "18+.Escorts.2015.480p.WEBRip. English.AAC.LLG"

18+.Escorts.2015.480p.WEBRip. English.AAC.LLG

Download this torrent | Magnet Download
Health:
Seeds: 7
Leechers: 14
Completed:
Last Checked: 16-04-2018 23:26:07
External Torrent
Update Stats


Watch-Free-HD     Download

Poster
No poster


iMDB
Imdb Picture Original Title: High Class Call Girls
Title: Escorts
Year: 2015
Runtime: 47 minutes
Votes: 250
Rating: 5.1/10
Language: English
Country: UK
All Genres: Documentary
Plot Outline: An insight into the lives of two self-dubbed high class call girls, Emily B and Cookie Jane.
Director: Dan Reed

Produced By: Tom Costello,Dan Reed,
Music: Chad Hobson
Cast:
Emily Banfield as Herself - Escort
Cookie Jane as Herself - Escort


Watch-Free-HD     Download

Details
Name:18+.Escorts.2015.480p.WEBRip. English.AAC.LLG
Description:




******************************Thumbnail:**********************

 

******************************Screenshots:********************

 Screenshot 1

 Screenshot 2

 Screenshot 3

 Screenshot 4

 Screenshot 5

 Screenshot 6

 Screenshot 7

 Screenshot 8

 Screenshot 9

 Screenshot 0

**************************************************************

Complete name                            : 18+.Escorts.2015.480p.WEBRip.English.AAC.LLG.mp4
Format                                   : MPEG-4
Format profile                           : Base Media
Codec ID                                 : isom (isom/iso2/avc1/mp41)
File size                                : 342 MiB
Duration                                 : 46 min 26 s
Overall bit rate                         : 1 028 kb/s
Writing application                      : Lavf57.56.101

Video
ID                                       : 1
Format                                   : AVC
Format/Info                              : Advanced Video Codec
Format profile                           : [email protected]
Format settings                          : CABAC / 4 Ref Frames
Format settings, CABAC                   : Yes
Format settings, RefFrames               : 4 frames
Codec ID                                 : avc1
Codec ID/Info                            : Advanced Video Coding
Duration                                 : 46 min 26 s
Bit rate                                 : 900 kb/s
Width                                    : 720 pixels
Height                                   : 404 pixels
Display aspect ratio                     : 16:9
Frame rate mode                          : Constant
Frame rate                               : 29.970 (29970/1000) FPS
Color space                              : YUV
Chroma subsampling                       : 4:2:0
Bit depth                                : 8 bits
Scan type                                : Progressive
Bits/(Pixel*Frame)                       : 0.103
Stream size                              : 296 MiB (87%)

Audio
ID                                       : 2
Format                                   : AAC
Format/Info                              : Advanced Audio Codec
Format profile                           : LC
Codec ID                                 : mp4a-40-2
Duration                                 : 46 min 26 s
Bit rate mode                            : Constant
Bit rate                                 : 129 kb/s
Channel(s)                               : 2 channels
Channel positions                        : Front: L R
Sampling rate                            : 48.0 kHz
Frame rate                               : 46.875 FPS (1024 SPF)
Compression mode                         : Lossy
Stream size                              : 42.7 MiB (13%)
Default                                  : Yes
Alternate group                          : 1

Category:Movies > HDRips
Lang:English  English
Total Size:349.27 MB
Info Hash:9aaae4813a6b49c99bdc5dfc4ad2ec7a81cb30fb
Added By:LifeLongg
Date Added:16-04-2018 22:22:43
Downloads:124

Download Torrent

Ratings:Not Yet Rated (Log in to rate it)


Tracker:
udp://tracker.openbittorrent.com:80/announce


File List: 


Comments

No comments still posted

Powered by 10 Hamsters v2-svn -|- Page Generated In 1.463038 secs.
-|- RSS Feed -|- Feed Info
Theme By: Nikkbu