Regarder
Ben Stassen


Login
Username:
Password:
[Signup]
[Recover Account]


Browse Torrents

Poll


You must be logged in to view polls



Torrent Details For "Mehrunisa V Lub U 2017 Pakistani 720p WEB-DL x264 AAC { TaRa }.mkv"

Mehrunisa V Lub U 2017 Pakistani 720p WEB-DL x264 AAC { TaRa }.mkv

Download this torrent | Magnet Download
Health:
Seeds: 86
Leechers: 271
Completed: 301 
Last Checked: 15-02-2018 14:00:34
External Torrent
Update Stats


Watch-Free-HD     Download

Poster


iMDB
Imdb Picture Title: Mehrunisa V Lub U
Year: 2017
Votes: 158
Rating: 7.2/10
Language: Urdu
Country: Pakistan
All Genres: Comedy, Romance
Plot Outline: A light comedy depicting prevalent social evils, general apathy of people and resolve of some to fight improve the life and surrounding around them.
Director: Yasir Nawaz
Writing By: Yasir Nawaz,
Produced By: Yasir Nawaz,Nida Yasir,Hassan Zia,
Music: Simaab Sen
Cast:
Nayyar Ejaz as
Amna Ilyas as Dancer
Sana Javed as Mehrunisa
Qavi Khan as
Nida Mumtaz as
Javed Sheikh as
Sarah Omair Siddique as
Saqib Sumeer as
Danish Taimoor as Ali


Watch-Free-HD     Download

Details
Name:Mehrunisa V Lub U 2017 Pakistani 720p WEB-DL x264 AAC { TaRa }.mkv
Description:

Mehrunisa V Lub U 2017 Pakistani 720p WEB-DL x264 AAC { TaRa }.mkv
 

===================================================================
General
Complete name               : Mehrunisa V Lub U 2017 Pakistani 720p WEB-DL x264 AAC { TaRa }.mkv
Format                      : Matroska
Format version              : Version 4 / Version 2
File size                   : 1.14 GiB
Duration                    : 2 h 13 min
Overall bit rate            : 1 227 kb/s
===================================================================
Video
ID                          : 1
Format                      : AVC
Format/Info                 : Advanced Video Codec
Format profile              : [email protected]
Format settings, CABAC      : Yes
Format settings, ReFrames   : 4 frames
Codec ID                    : V_MPEG4/ISO/AVC
Duration                    : 2 h 13 min
Bit rate                    : 1 100 kb/s
Width                       : 1 280 pixels
Height                      : 544 pixels
Display aspect ratio        : 2.35:1
Frame rate mode             : Constant
Frame rate                  : 24.000 FPS
Color space                 : YUV
Chroma subsampling          : 4:2:0
Bit depth                   : 8 bits
Scan type                   : Progressive
Bits/(Pixel*Frame)          : 0.066
Stream size                 : 1.02 GiB (90%)
Title                       : .....::::: TaRa :::::.....
Language                    : Urdu
Default                     : Yes
Forced                      : Yes
===================================================================
Audio
ID                          : 2
Format                      : AAC
Format/Info                 : Advanced Audio Codec
Format profile              : LC
Codec ID                    : A_AAC
Duration                    : 2 h 13 min
Bit rate                    : 126 kb/s
Channel(s)                  : 2 channels
Channel positions           : Front: L R
Sampling rate               : 44.1 kHz
Frame rate                  : 43.066 FPS (1024 spf)
Compression mode            : Lossy
Stream size                 : 119 MiB (10%)
Title                       : .....::::: TaRa :::::.....
Language                    : Urdu
Default                     : Yes
Forced                      : No
===================================================================


 
 
 
 
 
 
 
 
 
 
 
 
 
 
 
 
 
 
 
 










 


Category:Movies > Pakistani
Lang:Urdu
Total Size:1.14 GB
Info Hash:f8770ecd4319bdcb4c0a29064f95a45e97dc1ffa
Added By:SkTaRa
Date Added:14-02-2018 15:38:01
Downloads:169

Download Torrent

Ratings:Not Yet Rated (Log in to rate it)


Tracker:
udp://tracker.coppersurfer.tk:6969/announce


File List: 


Comments

<< Previous      Next >>
1 - 1

[Report] Posted: 15-02-2018 at 11:54:09
wiki



Uploaded: 0.00 B
Downloaded: 0.00 B
Ratio: ---

:love  :love WOw SUprbb SHARe THANks BRO KEep IT Up :-*

1 - 1
<< Previous      Next >>


Powered by 10 Hamsters v2-svn -|- Page Generated In 5.058909 secs.
-|- RSS Feed -|- Feed Info
Theme By: Nikkbu