Hataraki Man | Hatsukoi | Hatsukoi Geinin


Login
Username:
Password:
[Signup]
[Recover Account]


Browse Torrents

Poll


You must be logged in to view polls



Torrent Details For "Just Getting Started 2017 1080p BRRip x264 AAC - Download"

Just Getting Started 2017 1080p BRRip x264 AAC - Download

Download this torrent | Magnet Download
Health:
Seeds: 123
Leechers: 389
Completed: 270 
Last Checked: 14-02-2018 13:01:12
External Torrent
Update Stats


Watch-Free-HD     Download

Poster


iMDB
Imdb Picture Title: Just Getting Started
Year: 2017
Runtime: 91 minutes
Votes: 754
Rating: 3.9/10
Language: English
Country: USA
All Genres: Action, Comedy
Plot Outline: A two-hander action comedy in the vein of Midnight Run (1988), about an ex-F.B.I. Agent (Tommy Lee Jones) and an ex-mob lawyer in the Witness Protection Program (Morgan Freeman) having to put aside their petty rivalry on the golf course to fend off a mob hit.
Director: Ron Shelton
Writing By: Ron Shelton,
Produced By: Charles V. Bender,Kellie Davis,Bill Gerber,Jeffrey Lampert,John Mass,Philip Moross,Steve Richards,Alan Simpson,
Music: Alex Wurman
Cast:
Morgan Freeman as Duke
Glenne Headly as Margarite
Tommy Lee Jones as Leo
Jane Seymour as Delilah
Rene Russo as Suzie
Joe Pantoliano as Joey
Elizabeth Ashley as Lily
Sheryl Lee Ralph as Roberta
Nick Peine as Jimmy
Graham Beckel as Burt
Trailers:
In Theaters Dec. 8
Official Trailer


Watch-Free-HD     Download

Details
Name:Just Getting Started 2017 1080p BRRip x264 AAC - Download
Description:
Just Getting Started 2017 1080p BRRip x264 AAC - Download

Source:Drones
Format                      : Matroska
Format version              : Version 4 / Version 2
File size                   : 1.79 GiB
Duration                    : 1 h 30 min
Overall bit rate            : 2 821 kb/s
Movie name                  : Just Getting Started 2017 - Download


Video
ID                          : 1
Format                      : AVC
Format/Info                 : Advanced Video Codec
Format profile              : [email protected]
Format settings, CABAC      : Yes
Format settings, RefFrames  : 5 frames
Codec ID                    : V_MPEG4/ISO/AVC
Duration                    : 1 h 30 min
Bit rate                    : 2 500 kb/s
Width                       : 1 920 pixels
Height                      : 800 pixels
Display aspect ratio        : 2.40:1
Frame rate mode             : Constant
Frame rate                  : 23.976 (24000/1001) FPS
Language                    : English
Default                     : Yes
Forced                      : No
Color range                 : Limited
Color primaries             : BT.709
Transfer characteristics    : BT.709
Matrix coefficients         : BT.709

Audio
ID                          : 2
Format                      : AAC
Format/Info                 : Advanced Audio Codec
Format profile              : LC
Codec ID                    : A_AAC
Duration                    : 1 h 30 min
Bit rate                    : 320 kb/s
Channel(s)                  : 6 channels
Channel positions           : Front: L C R, Side: L R, LFE
Sampling rate               : 48.0 kHz
Frame rate                  : 46.875 FPS (1024 SPF)
Compression mode            : Lossy
Delay relative to video     : 9 ms
Stream size                 : 208 MiB (11%)
Language                    : English
Default                     : Yes
Forced                      : No

Text
ID                          : 3
Format                      : UTF-8
Codec ID                    : S_TEXT/UTF8
Codec ID/Info               : UTF-8 Plain Text
Duration                    : 1 h 30 min
Bit rate                    : 86 b/s
Count of elements           : 1701
Stream size                 : 57.5 KiB (0%)
Language                    : English
Default                     : Yes
Forced                      : No

Menu
00:00:00.000                : en:00:00:00.000
00:06:37.647                : en:00:06:37.647
00:11:13.506                : en:00:11:13.506
00:15:24.132                : en:00:15:24.132
00:22:28.722                : en:00:22:28.722
00:28:59.196                : en:00:28:59.196
00:34:12.467                : en:00:34:12.467
00:40:40.647                : en:00:40:40.647
00:49:58.495                : en:00:49:58.495
00:54:15.377                : en:00:54:15.377
01:00:56.278                : en:01:00:56.278
01:05:43.022                : en:01:05:43.022
01:12:51.367                : en:01:12:51.367
01:18:13.898                : en:01:18:13.898
01:22:24.273                : en:01:22:24.273
01:25:26.788                : en:01:25:26.788

           
Category:Movies > 1080P Bluray
Lang:English  English
Total Size:1.79 GB
Info Hash:d0167b2f3cbce97db037aa2f2cfce1c0626a9cc0
Added By:Download
Date Added:14-02-2018 09:01:06
Downloads:137

Download Torrent

Ratings:Not Yet Rated (Log in to rate it)


Tracker:
udp://tracker.coppersurfer.tk:6969/announce


File List: 


Comments

No comments still posted

Powered by 10 Hamsters v2-svn -|- Page Generated In 0.861073 secs.
-|- RSS Feed -|- Feed Info
Theme By: Nikkbu