The.Flash.2014.S04E13.HDTV.x264-SVA[ettv] | The.Big.Bang.Theory.S11E15.HDTV.x264-SVA[ettv] | Vikings.S05E10.HDTV.x264-KILLERS[ettv]


Login
Username:
Password:
[Signup]
[Recover Account]


Browse Torrents

Poll


You must be logged in to view polls



Torrent Details For "Pad Man (2018) DVDScr Hindi x264 Mp3 -LatestHDMovies"

Pad Man (2018) DVDScr Hindi x264 Mp3 -LatestHDMovies

Download this torrent | Magnet Download
Health:
Seeds: 15
Leechers: 4
Completed: 112 
Last Checked: 18-02-2018 14:38:35
External Torrent
Update Stats


Watch-Free-HD     Download

Poster


iMDB
Imdb Picture Title: Padman
Year: 2018
Language: Hindi
Country: India
All Genres: Biography, Comedy, Drama
Plot Outline: Biography on Tamil Nadu activist Arunachalam Muruganantham, whose mission was to provide sanitary napkin's to poor women of rural areas. Who would use rag cloths or leaves during periods ...
Director: R. Balki
Writing By: R. Balki,Swanand Kirkire,
Produced By: Twinkle Khanna,Anil Naidu,Prashant Shah,
Music: Amit Trivedi
Cast:
Amitabh Bachchan as
Akshay Kumar as Lakshmikant Chauhan
Sonam Kapoor as Rhea
Radhika Apte as Gayatri
George Zouvelos as United States Diplomat
Sudhir Pandey as
Biju Menon as
Rob Tunstall as UN Ambassador
Vicky Kadian as Office Gaurd
Swini Khara as
Trailers:
Official 'Padman' Trailer


Watch-Free-HD     Download

Details
Name:Pad Man (2018) DVDScr Hindi x264 Mp3 -LatestHDMovies
Description:

General
Unique ID                   : 185825847538260711840324646582975919762 (0x8BCCC1A4D7040682A0D39F8E4252F692)
Complete name               : Pad Man (2018) Hindi DVDScr x264  -LatestHDMovies.mkv
Format                      : Matroska
Format version              : Version 4 / Version 2
File size                   : 1.39 GiB
Duration                    : 2 h 12 min
Overall bit rate            : 1 501 kb/s
Movie name                  : LatestHDMovies
Encoded date                : UTC 2018-02-09 17:12:19
Writing application         : mkvmerge v7.8.0 ('River Man') 64bit built on Mar 27 2015 16:31:37
Writing library             : libebml v1.3.1 + libmatroska v1.4.2

Video
ID                          : 1
Format                      : AVC
Format/Info                 : Advanced Video Codec
Format profile              : [email protected]
Format settings             : CABAC / 4 Ref Frames
Format settings, CABAC      : Yes
Format settings, ReFrames   : 4 frames
Codec ID                    : V_MPEG4/ISO/AVC
Duration                    : 2 h 12 min
Bit rate                    : 1 403 kb/s
Width                       : 640 pixels
Height                      : 272 pixels
Display aspect ratio        : 2.35:1
Frame rate mode             : Constant
Frame rate                  : 25.000 FPS
Color space                 : YUV
Chroma subsampling          : 4:2:0
Bit depth                   : 8 bits
Scan type                   : Progressive
Bits/(Pixel*Frame)          : 0.322
Stream size                 : 1.30 GiB (93%)
Title                       : LatestHDMovies
Writing library             : x264 core 148 r2744 b97ae06
Encoding settings           : cabac=1 / ref=3 / deblock=1:0:0 / analyse=0x3:0x113 / me=hex / subme=7 / psy=1 / psy_rd=1.00:0.00 / mixed_ref=1 / me_range=16 / chroma_me=1 / trellis=1 / 8x8dct=1 / cqm=0 / deadzone=21,11 / fast_pskip=1 / chroma_qp_offset=-2 / threads=8 / lookahead_threads=1 / sliced_threads=0 / nr=0 / decimate=1 / interlaced=0 / bluray_compat=0 / constrained_intra=0 / bframes=3 / b_pyramid=2 / b_adapt=1 / b_bias=0 / direct=1 / weightb=1 / open_gop=0 / weightp=2 / keyint=250 / keyint_min=25 / scenecut=40 / intra_refresh=0 / rc_lookahead=40 / rc=2pass / mbtree=1 / bitrate=1403 / ratetol=1.0 / qcomp=0.60 / qpmin=0 / qpmax=69 / qpstep=4 / cplxblur=20.0 / qblur=0.5 / ip_ratio=1.40 / aq=1:1.00
Language                    : English
Default                     : Yes
Forced                      : No

Audio
ID                          : 2
Format                      : MPEG Audio
Format version              : Version 1
Format profile              : Layer 3
Format settings             : Joint stereo / MS Stereo
Codec ID                    : A_MPEG/L3
Codec ID/Hint               : MP3
Duration                    : 2 h 12 min
Bit rate mode               : Constant
Bit rate                    : 96.0 kb/s
Channel(s)                  : 2 channels
Sampling rate               : 48.0 kHz
Frame rate                  : 41.667 FPS (1152 SPF)
Compression mode            : Lossy
Stream size                 : 90.8 MiB (6%)
Title                       : LatestHDMovies
Writing library             : LAME3.99.5
Language                    : English
Default                     : Yes
Forced                      : No


 
                 
Category:Movies > Bollywood
Lang:Hindi
Total Size:1.39 GB
Info Hash:626e4262910cf8aa372ddc7b0703ce1879ba283a
Added By:LatestHDMovies
Date Added:14-02-2018 00:13:02
Downloads:1,113

Download Torrent

Ratings:Not Yet Rated (Log in to rate it)


Tracker:
udp://tracker.openbittorrent.com:80/announce


File List: 


Comments

<< Previous      Next >>
1 - 1

[Report] Posted: 14-02-2018 at 02:03:14
Kuldeep9549



Uploaded: 0.00 B
Downloaded: 0.00 B
Ratio: ---

This not a dvdscr print

1 - 1
<< Previous      Next >>


Powered by 10 Hamsters v2-svn -|- Page Generated In 1.460540 secs.
-|- RSS Feed -|- Feed Info
Theme By: Nikkbu