Login
Username:
Password:
[Signup]
[Recover Account]


Browse Torrents

Poll


You must be logged in to view polls



Latest Torrents
Sonu Ke Titu Ki Sw...
- [Size: 1.31 GB]

Uploded By Pradyum...
- [Size: 951.77 MB]

Baaghi 4K movie
- [Size: 1.97 GB]

Vaigai Express (20...
- [Size: 1.61 GB]

High.Maintenance.S...
- [Size: 601.93 MB]


Torrent Details For "Maatr 2017 Hindi Untouched 1080p WEB-DL - Team MoviesBay"

Maatr 2017 Hindi Untouched 1080p WEB-DL - Team MoviesBay

Download this torrent | Magnet Download
Health:
Seeds: 307
Leechers: 546
Completed: 313 
Last Checked: 14-02-2018 06:50:13
External Torrent
Update Stats


Watch-Free-HD     Download

Poster


iMDB
Imdb Picture Title: Maatr
Year: 2017
Runtime: 113 minutes
Votes: 39
Rating: 7.1/10
Language: Hindi
Country: India
All Genres: Thriller
Plot Outline: Vidya, who's left shattered after her daughter Tia's murder, seeks vengeance by fighting the broken justice and criminal system.
Director: Ashtar Sayed
Writing By: Michael Pellico,Mishkka Shekhawat,
Produced By: Manoj Adhikari,Shailendra Kaushik,Asif Khan,Michael Pellico,Stephen Pellico,Anjum Rizvi,Yaniv Rokah,Ayesha Shiva,
Music: Utkarsh Umesh Dhotekar
Plot:

Vidya, who's left shattered after her daughter Tia's murder, seeks vengeance by fighting the broken justice and criminal system.


Cast:
Raveena Tandon as Vidya Chauhan
Madhur Mittal as Apurva Malik
Alisha Khan as Tia
Anurag Arora as Inspector Jayant Shroff
Divya Jagdale as Ritu
Saheem Khan as Inspector Akhil
Piyush Kaushik as Sikander Beniwal
Shailender Goel as Govardhan Malik
Nitin Sharma as Inder Jhangra
Ishan Bhatt as Kamran Qureshi


Watch-Free-HD     Download

Details
Name:Maatr 2017 Hindi Untouched 1080p WEB-DL - Team MoviesBay
Description:



General
Complete name                            : P:\seed\Maatr 2017 Hindi Untouched 1080p WEB-DL - Team MoviesBay\Www.MoviesBay.info.mp4
Format                                   : MPEG-4
Format profile                           : Base Media
Codec ID                                 : isom (isom/iso2/avc1/iso6/mp41)
File size                                : 3.26 GiB
Duration                                 : 1 h 42 min
Overall bit rate                         : 4 566 kb/s
Writing application                      : Lavf57.84.101

Video
ID                                       : 1
Format                                   : AVC
Format/Info                              : Advanced Video Codec
Format profile                           : [email protected]
Format settings, CABAC                   : Yes
Format settings, RefFrames               : 1 frame
Format settings, GOP                     : M=1, N=25
Codec ID                                 : avc1
Codec ID/Info                            : Advanced Video Coding
Duration                                 : 1 h 42 min
Bit rate mode                            : Constant
Bit rate                                 : 4 500 kb/s
Width                                    : 1 920 pixels
Height                                   : 1 080 pixels
Display aspect ratio                     : 16:9
Frame rate mode                          : Variable
Frame rate                               : 25.000 FPS
Minimum frame rate                       : 24.793 FPS
Maximum frame rate                       : 25.000 FPS
Color space                              : YUV
Chroma subsampling                       : 4:2:0
Bit depth                                : 8 bits
Scan type                                : Progressive
Bits/(Pixel*Frame)                       : 0.087
Stream size                              : 3.21 GiB (99%)

Audio
ID                                       : 2
Format                                   : AAC
Format/Info                              : Advanced Audio Codec
Format profile                           : LTP
Codec ID                                 : 40
Duration                                 : 1 h 42 min
Bit rate                                 : 61.4 kb/s
Channel(s)                               : 2 channels
Channel(s)_Original                      : 1 channel
Channel positions                        : Front: C
Sampling rate                            : 64.0 kHz
Frame rate                               : 62.500 FPS (1024 SPF)
Compression mode                         : Lossy
Stream size                              : 44.9 MiB (1%)
Default                                  : Yes
Alternate group                          : 1




 
 
 
 
 

Category:Movies > Bollywood
Lang:Hindi
Total Size:3.27 GB
Info Hash:351cda80119d3efb65f425a37e8e41883a73d7c0
Added By:sultaan
Date Added:13-02-2018 16:18:21
Downloads:537

Download Torrent

Ratings:Not Yet Rated (Log in to rate it)


Tracker:
udp://tracker.openbittorrent.com:80/announce


File List: 


Comments

No comments still posted

Powered by 10 Hamsters v2-svn -|- Page Generated In 1.146553 secs.
-|- RSS Feed -|- Feed Info
Theme By: Nikkbu