Magnum, P.I. - Season 01 | Magnum, P.I. - Season 04 | Magnum, P.I. - Season 03


Login
Username:
Password:
[Signup]
[Recover Account]


Browse Torrents

Poll


You must be logged in to view polls



Torrent Details For "Three.Billboards.Outside.Ebbing.Missouri.2017.720p.WEB-DL.DD5.1.H264-FGT"

Three.Billboards.Outside.Ebbing.Missouri.2017.720p.WEB-DL.DD5.1.H264-FGT

Download this torrent | Magnet Download
Health:
Seeds: 2,674
Leechers: 5,350
Completed: 10,078 
Last Checked: 13-02-2018 12:45:53
External Torrent
Update Stats


Watch-Free-HD     Download

Poster
No poster


iMDB
Imdb Picture Title: Three Billboards Outside Ebbing, Missouri
Year: 2017
Runtime: 115 minutes
Votes: 68045
Rating: 8.3/10
Language: English
Country: USA, UK
All Genres: Crime, Drama
Plot Outline: A mother personally challenges the local authorities to solve her daughter's murder when they fail to catch the culprit.
Director: Martin McDonagh
Writing By: Martin McDonagh,
Produced By: Daniel Battsek,Graham Broadbent,Peter Czernin,Rose Garnett,Ben Knight,David Kosse,Martin McDonagh,Diarmuid McKeown,Bergen Swanson,
Music: Carter Burwell
Cast:
Frances McDormand as Mildred
Caleb Landry Jones as Red Welby
Kerry Condon as Pamela
Sam Rockwell as Dixon
Alejandro Barrios as Latino
Jason Redford as Latino #2
Darrell Britt-Gibson as Jerome
Woody Harrelson as Willoughby
Abbie Cornish as Anne
Riya May Atwood as Polly
Trailers:
Now Playing
International Trailer
Trailer #2
Red Band Trailer


Watch-Free-HD     Download

Details
Name:Three.Billboards.Outside.Ebbing.Missouri.2017.720p.WEB-DL.DD5.1.H264-FGT
Description:
 
 
 
 
 
 




Video
ID                                       : 1
Format                                   : AVC
Format/Info                              : Advanced Video Codec
Format profile                           : [email protected]
Format settings                          : 2 Ref Frames
Format settings, CABAC                   : No
Format settings, ReFrames                : 2 frames
Codec ID                                 : V_MPEG4/ISO/AVC
Duration                                 : 1 h 55 min
Bit rate                                 : 4 092 kb/s
Width                                    : 1 280 pixels
Height                                   : 534 pixels
Display aspect ratio                     : 2.40:1
Frame rate mode                          : Constant
Frame rate                               : 23.976 FPS
Color space                              : YUV
Chroma subsampling                       : 4:2:0
Bit depth                                : 8 bits
Scan type                                : Progressive
Bits/(Pixel*Frame)                       : 0.250
Stream size                              : 3.31 GiB (91%)
Title                                    : Three.Billboards.Outside.Ebbing.Missouri.2017.720p.WEB-DL.DD5.1.H264-FGT
Language                                 : English
Default                                  : Yes
Forced                                   : No
Color range                              : Limited
Color primaries                          : BT.709
Transfer characteristics                 : BT.709
Matrix coefficients                      : BT.709

Audio
ID                                       : 2
Format                                   : AC-3
Format/Info                              : Audio Coding 3
Codec ID                                 : A_AC3
Duration                                 : 1 h 55 min
Bit rate mode                            : Constant
Bit rate                                 : 384 kb/s
Channel(s)                               : 6 channels
Channel positions                        : Front: L C R, Side: L R, LFE
Sampling rate                            : 48.0 kHz
Frame rate                               : 31.250 FPS (1536 SPF)
Bit depth                                : 16 bits
Compression mode                         : Lossy
Stream size                              : 317 MiB (9%)
Title                                    : Three.Billboards.Outside.Ebbing.Missouri.2017.720p.WEB-DL.DD5.1.H264-FGT
Language                                 : English
Service kind                             : Complete Main
Default                                  : Yes
Forced                                   : No

Menu
00:00:00.000                             : en:Chapter 01
00:05:42.092                             : en:Chapter 02
00:08:56.911                             : en:Chapter 03
00:12:50.019                             : en:Chapter 04
00:19:46.643                             : en:Chapter 05
00:23:43.546                             : en:Chapter 06
00:27:36.362                             : en:Chapter 07
00:31:35.768                             : en:Chapter 08
00:35:08.689                             : en:Chapter 09
00:40:54.826                             : en:Chapter 10
00:44:35.713                             : en:Chapter 11
00:49:18.787                             : en:Chapter 12
00:55:35.914                             : en:Chapter 13
00:59:56.132                             : en:Chapter 14
01:04:09.885                             : en:Chapter 15
01:10:55.290                             : en:Chapter 16
01:15:36.696                             : en:Chapter 17
01:23:08.731                             : en:Chapter 18
01:27:24.486                             : en:Chapter 19
01:35:49.699                             : en:Chapter 20
01:40:32.690                             : en:Chapter 21
01:44:02.191                             : en:Chapter 22
01:46:56.907                             : en:Chapter 23
01:49:55.001                             : en:Chapter 24
Category:Movies > WEB-HD
Lang:English  English
Total Size:3.62 GB
Info Hash:b710c6b59ae2b6bb7a53de4ce32db9b06dd01d55
Added By:Agent47
Date Added:13-02-2018 09:43:50
Downloads:56

Download Torrent

Ratings:Not Yet Rated (Log in to rate it)


Tracker:
http://tracker.trackerfix.com:80/announce


File List: 


Comments

No comments still posted

Powered by 10 Hamsters v2-svn -|- Page Generated In 0.062385 secs.
-|- RSS Feed -|- Feed Info
Theme By: Nikkbu