Login
Username:
Password:
[Signup]
[Recover Account]


Browse Torrents

Poll


You must be logged in to view polls



Latest Torrents
Sonu Ke Titu Ki Sw...
- [Size: 1.31 GB]

Uploded By Pradyum...
- [Size: 951.77 MB]

Baaghi 4K movie
- [Size: 1.97 GB]

Vaigai Express (20...
- [Size: 1.61 GB]

High.Maintenance.S...
- [Size: 601.93 MB]


Torrent Details For "Zila Ghaziabad (2013) Hindi WEBHD 720p x264 AAC - 1.2GB - MovCr"

Zila Ghaziabad (2013) Hindi WEBHD 720p x264 AAC - 1.2GB - MovCr

Download this torrent | Magnet Download
Health:
Seeds: 23
Leechers: 3
Completed: 740 
Last Checked: 22-02-2018 04:10:40
External Torrent
Update Stats


Watch-Free-HD     Download

Poster


iMDB
Imdb Picture Title: Zila Ghaziabad
Year: 2013
Runtime: 142 minutes
Votes: 1056
Rating: 3.6/10
Language: Hindi
Country: India
All Genres: Action, Crime, Thriller
Plot Outline: In the city of Ghaziabad, gang war breaks between two rival groups led by Satbir Singh and Fauji. Thakur Pritam Singh, a corrupt police officer, is transferred to the city to handle the situation.
Director: Anand Kumar
Writing By: Vinay Sharma,
Produced By: Vinod Bachchan,Manoj Chaturvedi,Mohammed Fasih,Monica Vimal Maluka,Krishanu Sarbabhowm,Yogiraj Shetty,Vishal Singh,
Music: Amjad Pritam Chakraborty Amar Mohile Nadeem Saifi
Cast:
Vivek Oberoi as Satbir Gurjar
Sanjay Dutt as Thakur Pritam Singh
Arshad Warsi as Mahendra Fauji
Paresh Rawal as Brahampal Singh Choudhary
Ravi Kishan as Rashid Ali
Ashutosh Rana as Sangam Singh
Minissha Lamba as Fauji's girlfriend
Divya Dutta as Mahenderi
Sunil Grover as Faqeera
Charmy Kaur as Suman
Trailers:
Zilla Ghaziabad Official Trailer


Watch-Free-HD     Download

Details
Name:Zila Ghaziabad (2013) Hindi WEBHD 720p x264 AAC - 1.2GB - MovCr
Description:
Zila Ghaziabad (2013) Hindi WEBHD 720p x264 AAC - 1.2GB - MovCr

 http://www.imdb.com/title/tt2171454/

 
General
Complete name                            : www.movcr.com - Zila Ghaziabad (2013) Hindi WEBHD 720p x264 AAC - 1.2GB - MovCr.mkv
Format                                   : Matroska
Format version                           : Version 4 / Version 2
File size                                : 1.26 GiB
Duration                                 : 2 h 22 min
Overall bit rate                         : 1 261 kb/s
Movie name                               : www.movcr.com
Encoded date                             : UTC 2018-02-13 17:03:21
Writing application                      : mkvmerge v20.0.0 ('I Am The Sun') 64-bit
Writing library                          : libebml v1.3.5 + libmatroska v1.4.8 / IDMmkvlib0.1
Language                                 : und

Video
ID                                       : 1
Format                                   : VP9
Codec ID                                 : V_VP9
Duration                                 : 2 h 22 min
Bit rate                                 : 1 136 kb/s
Width                                    : 1 280 pixels
Height                                   : 720 pixels
Display aspect ratio                     : 16:9
Frame rate mode                          : Constant
Frame rate                               : 24.000 FPS
Bits/(Pixel*Frame)                       : 0.051
Stream size                              : 1.13 GiB (90%)
Title                                    : www.movcr.com
Default                                  : Yes
Forced                                   : No

Audio
ID                                       : 2
Format                                   : Opus
Codec ID                                 : A_OPUS
Duration                                 : 2 h 22 min
Bit rate                                 : 122 kb/s
Channel(s)                               : 2 channels
Channel positions                        : Front: L R
Sampling rate                            : 48.0 kHz
Frame rate                               : 50.000 FPS (960 SPF)
Compression mode                         : Lossy
Stream size                              : 125 MiB (10%)
Title                                    : www.movcr.com
Default                                  : Yes
Forced                                   : No


 
 
 
 
 
 
 
 
 
Category:Movies > Bollywood
Lang:Hindi
Total Size:1.26 GB
Info Hash:de1822fb5e918edbd4c046da8f684704cc288d38
Added By:Kingmaker
Date Added:13-02-2018 03:35:04
Downloads:398

Download Torrent

Ratings:Not Yet Rated (Log in to rate it)


Tracker:
udp://tracker.openbittorrent.com:80/announce


File List: 


Comments

No comments still posted

Powered by 10 Hamsters v2-svn -|- Page Generated In 1.398515 secs.
-|- RSS Feed -|- Feed Info
Theme By: Nikkbu