Белое золото | Белое рождество | Белое-черное


Login
Username:
Password:
[Signup]
[Recover Account]


Browse Torrents

Poll


You must be logged in to view polls



Torrent Details For "Justice.League.2017.720p.WEBRip.AAC.LLG"

Justice.League.2017.720p.WEBRip.AAC.LLG

Download this torrent | Magnet Download
Health:
Seeds: 0
Leechers: 0
Completed:
Last Checked: 12-02-2018 04:21:01
External Torrent
Update Stats


Watch-Free-HD     Download

Poster
No poster


iMDB
Imdb Picture Title: Justice League
Year: 2017
Language: English
Country: USA
All Genres: Action, Adventure, Fantasy, Sci-Fi
Plot Outline: Fueled by his restored faith in humanity and inspired by Superman's selfless act, Bruce Wayne enlists the help of his newfound ally, Diana Prince, to face an even greater enemy.
Tagline: Unite
Director: Zack Snyder
Writing By: Chris Terrio,Joss Whedon,Zack Snyder,Chris Terrio,Bob Kane,Bill Finger,William Moulton Marston,Joe Shuster,Jerry Siegel,
Produced By: Ben Affleck,Jon Berg,Wesley Coller,Jose María de La Puente,Finni Johannsson,Geoff Johns,Charles Roven,Deborah Snyder,Chris Terrio,Andrea Wertheim,Gregor Wilson,
Music: Danny Elfman
Cast:
Gal Gadot as Diana Prince / Wonder Woman
Robin Wright as Antiope
Jason Momoa as Arthur Curry / Aquaman
Connie Nielsen as Queen Hippolyta
Amy Adams as Lois Lane
Ben Affleck as Bruce Wayne / Batman
Ezra Miller as Barry Allen / The Flash
Amber Heard as Mera
Henry Cavill as Clark Kent / Superman
Diane Lane as Martha Kent
Trailers:
Official Heroes Trailer
Comic-Con Sneak Peek
Official Trailer
Special Comic-Con Footage


Watch-Free-HD     Download

Details
Name:Justice.League.2017.720p.WEBRip.AAC.LLG
Description:
******************************Thumbnail:**********************

 

******************************Screenshots:********************

 Screenshot 1

 Screenshot 2

 Screenshot 3

 Screenshot 4

 Screenshot 5

 Screenshot 6

 Screenshot 7

 Screenshot 8

 Screenshot 9

 Screenshot 0

**************************************************************

Complete name                            : Justice.League.2017.720p.WEBRip.AAC.LLG.mp4
Format                                   : MPEG-4
Format profile                           : Base Media
Codec ID                                 : isom (isom/iso2/avc1/mp41)
File size                                : 828 MiB
Duration                                 : 1 h 59 min
Overall bit rate                         : 968 kb/s
Writing application                      : Lavf57.56.101

Video
ID                                       : 1
Format                                   : AVC
Format/Info                              : Advanced Video Codec
Format profile                           : [email protected]
Format settings                          : CABAC / 4 Ref Frames
Format settings, CABAC                   : Yes
Format settings, RefFrames               : 4 frames
Codec ID                                 : avc1
Codec ID/Info                            : Advanced Video Coding
Duration                                 : 1 h 59 min
Bit rate                                 : 900 kb/s
Width                                    : 1 280 pixels
Height                                   : 720 pixels
Display aspect ratio                     : 16:9
Frame rate mode                          : Constant
Frame rate                               : 29.970 (29970/1000) FPS
Color space                              : YUV
Chroma subsampling                       : 4:2:0
Bit depth                                : 8 bits
Scan type                                : Progressive
Bits/(Pixel*Frame)                       : 0.033
Stream size                              : 766 MiB (92%)

Audio
ID                                       : 2
Format                                   : AAC
Format/Info                              : Advanced Audio Codec
Format profile                           : LC
Codec ID                                 : mp4a-40-2
Duration                                 : 1 h 59 min
Bit rate mode                            : Constant
Bit rate                                 : 64.5 kb/s
Channel(s)                               : 2 channels
Channel positions                        : Front: L R
Sampling rate                            : 48.0 kHz
Frame rate                               : 46.875 FPS (1024 SPF)
Compression mode                         : Lossy
Stream size                              : 55.2 MiB (7%)
Language                                 : English
Default                                  : Yes
Alternate group                          : 1
Category:Movies > WEB-HD
Lang:English  English
Total Size:842.97 MB
Info Hash:a81f0f45115e985e1560f7e68bd8f4b6751ec2db
Added By:LifeLongg
Date Added:12-02-2018 04:21:01
Downloads:33

Download Torrent

Ratings:Not Yet Rated (Log in to rate it)


Tracker:
udp://tracker.openbittorrent.com:80/announce


File List: 


Comments

No comments still posted

Powered by 10 Hamsters v2-svn -|- Page Generated In 0.070481 secs.
-|- RSS Feed -|- Feed Info
Theme By: Nikkbu