16/09/2017 21:50 | Curso Introducción exprés al 3D: De cero a render con Cinema 4D | 13/09/2017 01:37


Login
Username:
Password:
[Signup]
[Recover Account]


Browse Torrents

Poll


You must be logged in to view polls



Torrent Details For "18+.Compulsion.2018.720p.WEB-DL.DD.5.1.x264.LLG"

18+.Compulsion.2018.720p.WEB-DL.DD.5.1.x264.LLG

Download this torrent | Magnet Download
Health:
Seeds: 0
Leechers: 0
Completed:
Last Checked: 09-02-2018 19:26:19
External Torrent
Update Stats


Watch-Free-HD     Download

Poster
No poster


iMDB
Title: Compulsion
Year: 2018
Runtime: 93 minutes
Language: English, Spanish
Country: Mexico
All Genres: Thriller
Director: Batan Silva
Writing By: Monica,
Produced By: Abel Cruz,Rafael Cuervo,Alejandra Cárdenas,Monica Lee,Batan Silva,
Music: Daniel Hidalgo
Cast:
Sofía Sisniega as Helen
Andrés Almeida as Ernesto
Mauricio Isaac as Ramos
Alejandra Gollas as Benjie
Harding Junior as Sergio Torres / Manolo
Carl Mergenthaler as Victor


Watch-Free-HD     Download

Details
Name:18+.Compulsion.2018.720p.WEB-DL.DD.5.1.x264.LLG
Description:
******************************Thumbnail:**********************

 

******************************Screenshots:********************

 Screenshot 1

 Screenshot 2

 Screenshot 3

 Screenshot 4

 Screenshot 5

 Screenshot 6

 Screenshot 7

 Screenshot 8

 Screenshot 9

 Screenshot 0

**************************************************************

Complete name                            : 18+.Compulsion.2018.720p.WEB-DL.DD.5.1.x264.LLG.mp4
Format                                   : MPEG-4
Format profile                           : Base Media
Codec ID                                 : isom (isom/iso2/avc1/mp41)
File size                                : 793 MiB
Duration                                 : 1 h 24 min
Overall bit rate                         : 1 317 kb/s
Writing application                      : Lavf57.56.101

Video
ID                                       : 1
Format                                   : AVC
Format/Info                              : Advanced Video Codec
Format profile                           : [email protected]
Format settings                          : CABAC / 4 Ref Frames
Format settings, CABAC                   : Yes
Format settings, RefFrames               : 4 frames
Codec ID                                 : avc1
Codec ID/Info                            : Advanced Video Coding
Duration                                 : 1 h 24 min
Bit rate                                 : 1 200 kb/s
Width                                    : 1 280 pixels
Height                                   : 542 pixels
Display aspect ratio                     : 2.35:1
Frame rate mode                          : Constant
Frame rate                               : 23.976 (23976/1000) FPS
Color space                              : YUV
Chroma subsampling                       : 4:2:0
Bit depth                                : 8 bits
Scan type                                : Progressive
Bits/(Pixel*Frame)                       : 0.072
Stream size                              : 713 MiB (90%)

Audio
ID                                       : 2
Format                                   : AC-3
Format/Info                              : Audio Coding 3
Codec ID                                 : ac-3
Duration                                 : 1 h 24 min
Bit rate mode                            : Constant
Bit rate                                 : 128 kb/s
Channel(s)                               : 6 channels
Channel positions                        : Front: L C R, Side: L R, LFE
Sampling rate                            : 48.0 kHz
Frame rate                               : 31.250 FPS (1536 SPF)
Bit depth                                : 16 bits
Compression mode                         : Lossy
Stream size                              : 77.1 MiB (10%)
Language                                 : English
Service kind                             : Complete Main
Default                                  : Yes
Alternate group                          : 1

Category:Movies > WEB-HD
Lang:English  English
Total Size:801.82 MB
Info Hash:6f4748e704445090747f21eec0a471ac3e1c8cae
Added By:LifeLongg
Date Added:09-02-2018 19:26:19
Downloads:151

Download Torrent

Ratings:Not Yet Rated (Log in to rate it)


Tracker:
udp://tracker.openbittorrent.com:80/announce


File List: 


Comments

No comments still posted

Powered by 10 Hamsters v2-svn -|- Page Generated In 0.061130 secs.
-|- RSS Feed -|- Feed Info
Theme By: Nikkbu