Breaking Bad - Season 4 | The Spectacular Now | The Messengers - Season 1


Login
Username:
Password:
[Signup]
[Recover Account]


Browse Torrents

Poll


You must be logged in to view polls



Torrent Details For "When.We.First.Met.2018.1080p.NF.WEBRip.DD5.1.x264-SiGMA"

When.We.First.Met.2018.1080p.NF.WEBRip.DD5.1.x264-SiGMA

Download this torrent | Magnet Download
Health:
Seeds: 4,514
Leechers: 2,432
Completed: 42,568 
Last Checked: 10-02-2018 04:08:45
External Torrent
Update Stats


Watch-Free-HD     Download

Poster


iMDB
Imdb Picture Title: When We First Met
Year: 2018
Votes: 9
Rating: 7.9/10
Language: English
Country: USA
All Genres: Comedy
Plot Outline: Noah spends the perfect first night with Avery, the girl of his dreams, but gets relegated to the friend zone. He spends the next three years wondering what went wrong - until he gets the ...
Tagline: All he needs is a second chance to be her first choice.
Director: Ari Sandel
Writing By: John Whittington,
Produced By: Steven Bello,Steven Eddy,Bingo Gubelmann,Daniella Kahane,Michelle Knudsen,Benji Kohn,McG,James McGough,Mason Novick,Peter Pastorelli,Eddie Rubin,Adam Saunders,Mary Viola,Danny Zamost,
Music: Eric V. Hachikian
Cast:
Alexandra Daddario as Avery Martin
Robbie Amell as Ethan
Adam Devine as Noah Ashby
Noureen DeWulf as Margo
Shelley Hennig as Carrie
Andrew Bachelor as Max
Tony Cavalero as Angus Young
Tenea Intriago as Goth Bride
Chris Wylde as Mr. Costigan
Dean J. West as Phill / Jello Shot Dr.
Trailers:
Official Trailer


Watch-Free-HD     Download

Details
Name:When.We.First.Met.2018.1080p.NF.WEBRip.DD5.1.x264-SiGMA
Description:
 
 
 
 
 
 



Video
ID                                       : 1
Format                                   : AVC
Format/Info                              : Advanced Video Codec
Format profile                           : [email protected]
Format settings                          : CABAC / 3 Ref Frames
Format settings, CABAC                   : Yes
Format settings, ReFrames                : 3 frames
Codec ID                                 : V_MPEG4/ISO/AVC
Duration                                 : 1 h 37 min
Bit rate mode                            : Variable
Bit rate                                 : 5 360 kb/s
Maximum bit rate                         : 8 040 kb/s
Width                                    : 1 920 pixels
Height                                   : 1 080 pixels
Display aspect ratio                     : 16:9
Frame rate mode                          : Constant
Frame rate                               : 23.976 (24000/1001) FPS
Color space                              : YUV
Chroma subsampling                       : 4:2:0
Bit depth                                : 8 bits
Scan type                                : Progressive
Bits/(Pixel*Frame)                       : 0.108
Stream size                              : 3.50 GiB (93%)
Writing library                          : x264 core 118
Encoding settings                        : cabac=1 / ref=3 /  deblock=1:0:0 / analyse=0x1:0x111 / me=umh / subme=10 / psy=1 /  psy_rd=1.00:0.00 / mixed_ref=1 / me_range=24 / chroma_me=1 / trellis=2 /  8x8dct=0 / cqm=0 / deadzone=21,11 / fast_pskip=1 / chroma_qp_offset=-2 /  threads=8 / sliced_threads=0 / nr=0 / decimate=1 / interlaced=0 /  bluray_compat=0 / constrained_intra=0 / bframes=2 / b_pyramid=0 /  b_adapt=2 / b_bias=0 / direct=3 / weightb=1 / open_gop=0 / weightp=2 /  keyint=48 / keyint_min=25 / scenecut=0 / intra_refresh=0 /  rc_lookahead=0 / rc=2pass / mbtree=1 / bitrate=5360 / ratetol=1.0 /  qcomp=0.50 / qpmin=6 / qpmax=51 / qpstep=4 / cplxblur=20.0 / qblur=0.5 /  vbv_maxrate=8040 / vbv_bufsize=10720 / nal_hrd=vbr / ip_ratio=1.40 /  aq=1:1.00
Default                                  : Yes
Forced                                   : No

Audio
ID                                       : 2
Format                                   : AC-3
Format/Info                              : Audio Coding 3
Codec ID                                 : A_AC3
Duration                                 : 1 h 37 min
Bit rate mode                            : Constant
Bit rate                                 : 384 kb/s
Channel(s)                               : 6 channels
Channel positions                        : Front: L C R, Side: L R, LFE
Sampling rate                            : 48.0 kHz
Frame rate                               : 31.250 FPS (1536 SPF)
Bit depth                                : 16 bits
Compression mode                         : Lossy
Stream size                              : 267 MiB (7%)
Language                                 : English
Service kind                             : Complete Main
Default                                  : Yes
Forced                                   : No

Text #1
ID                                       : 3
Format                                   : UTF-8
Codec ID                                 : S_TEXT/UTF8
Codec ID/Info                            : UTF-8 Plain Text
Duration                                 : 55 s 805 ms
Bit rate                                 : 58 b/s
Count of elements                        : 12
Stream size                              : 406 Bytes (0%)
Title                                    : Forced
Language                                 : English
Default                                  : Yes
Forced                                   : Yes

Text #2
ID                                       : 4
Format                                   : UTF-8
Codec ID                                 : S_TEXT/UTF8
Codec ID/Info                            : UTF-8 Plain Text
Duration                                 : 1 h 32 min
Bit rate                                 : 98 b/s
Count of elements                        : 1919
Stream size                              : 66.9 KiB (0%)
Title                                    : SDH
Language                                 : English
Default                                  : No
Forced                                   : No

Text #3
ID                                       : 5
Format                                   : UTF-8
Codec ID                                 : S_TEXT/UTF8
Codec ID/Info                            : UTF-8 Plain Text
Duration                                 : 1 h 36 min
Bit rate                                 : 72 b/s
Count of elements                        : 1628
Stream size                              : 51.1 KiB (0%)
Language                                 : Spanish
Default                                  : No
Forced                                   : No

Text #4
ID                                       : 6
Format                                   : UTF-8
Codec ID                                 : S_TEXT/UTF8
Codec ID/Info                            : UTF-8 Plain Text
Duration                                 : 1 h 36 min
Bit rate                                 : 69 b/s
Count of elements                        : 1626
Stream size                              : 48.9 KiB (0%)
Language                                 : French
Default                                  : No
Forced                                   : No

Text #5
ID                                       : 7
Format                                   : UTF-8
Codec ID                                 : S_TEXT/UTF8
Codec ID/Info                            : UTF-8 Plain Text
Duration                                 : 1 h 36 min
Bit rate                                 : 68 b/s
Count of elements                        : 1591
Stream size                              : 48.2 KiB (0%)
Language                                 : German
Default                                  : No
Forced                                   : No

Text #6
ID                                       : 8
Format                                   : UTF-8
Codec ID                                 : S_TEXT/UTF8
Codec ID/Info                            : UTF-8 Plain Text
Duration                                 : 1 h 36 min
Bit rate                                 : 72 b/s
Count of elements                        : 1596
Stream size                              : 50.9 KiB (0%)
Language                                 : Italian
Default                                  : No
Forced                                   : No

Category:Movies > WEB-HD
Lang:English  English
Total Size:3.76 GB
Info Hash:c884f6df556c43fc63fd9267f0e7ebd8a88b6cf8
Added By:Agent47
Date Added:09-02-2018 10:35:02
Downloads:471

Download Torrent

Ratings:Not Yet Rated (Log in to rate it)


Tracker:
http://tracker.trackerfix.com:80/announce


File List: 


Comments

No comments still posted

Powered by 10 Hamsters v2-svn -|- Page Generated In 0.046228 secs.
-|- RSS Feed -|- Feed Info
Theme By: Nikkbu