Read More | Read More | Read More


Login
Username:
Password:
[Signup]
[Recover Account]


Browse Torrents

Poll


You must be logged in to view polls



Torrent Details For "The.Passing.2017.720p.AMZN.WEB-DL.DD.5.1.H.264.ESubs.LLG"

The.Passing.2017.720p.AMZN.WEB-DL.DD.5.1.H.264.ESubs.LLG

Download this torrent | Magnet Download
Health:
Seeds: 3
Leechers: 23
Completed: 14 
Last Checked: 09-02-2018 11:40:22
External Torrent
Update Stats


Watch-Free-HD     Download

Poster
No poster


iMDB
Title: The Passing
Year: 2017
Language: English
Country: UK
All Genres: Short, Drama
Director: Jon Campbell
Writing By: Jon Campbell,
Cast:
Vivien Monory as Gina
Carl Welch as Dad


Watch-Free-HD     Download

Details
Name:The.Passing.2017.720p.AMZN.WEB-DL.DD.5.1.H.264.ESubs.LLG
Description:
Language : ? N/A

******************************Thumbnail:**********************

 

******************************Screenshots:********************

 Screenshot 1

 Screenshot 2

 Screenshot 3

 Screenshot 4

 Screenshot 5

 Screenshot 6

 Screenshot 7

 Screenshot 8

 Screenshot 9

 Screenshot 0

**************************************************************

Complete name                            : The.Passing.2017.720p.AMZN.WEB-DL.DD.5.1.H.264.ESubs.LLG
Format                                   : MPEG-4
Format profile                           : Base Media
Codec ID                                 : isom (isom/iso2/avc1/mp41)
File size                                : 922 MiB
Duration                                 : 1 h 29 min
Overall bit rate                         : 1 446 kb/s
Writing application                      : Lavf57.56.101

Video
ID                                       : 1
Format                                   : AVC
Format/Info                              : Advanced Video Codec
Format profile                           : [email protected]
Format settings                          : CABAC / 4 Ref Frames
Format settings, CABAC                   : Yes
Format settings, RefFrames               : 4 frames
Codec ID                                 : avc1
Codec ID/Info                            : Advanced Video Coding
Duration                                 : 1 h 29 min
Bit rate                                 : 1 200 kb/s
Width                                    : 1 280 pixels
Height                                   : 544 pixels
Display aspect ratio                     : 2.35:1
Frame rate mode                          : Constant
Frame rate                               : 23.976 (23976/1000) FPS
Color space                              : YUV
Chroma subsampling                       : 4:2:0
Bit depth                                : 8 bits
Scan type                                : Progressive
Bits/(Pixel*Frame)                       : 0.072
Stream size                              : 755 MiB (82%)

Audio
ID                                       : 2
Format                                   : AC-3
Format/Info                              : Audio Coding 3
Codec ID                                 : ac-3
Duration                                 : 1 h 29 min
Bit rate mode                            : Constant
Bit rate                                 : 256 kb/s
Channel(s)                               : 6 channels
Channel positions                        : Front: L C R, Side: L R, LFE
Sampling rate                            : 48.0 kHz
Frame rate                               : 31.250 FPS (1536 SPF)
Bit depth                                : 16 bits
Compression mode                         : Lossy
Stream size                              : 163 MiB (18%)
Service kind                             : Complete Main
Default                                  : Yes
Alternate group                          : 1

Category:Movies > WEB-HD
Lang:Unknown/NA
Total Size:945.89 MB
Info Hash:ab3ccbf53cad8cc246e64337f8edde4353978561
Added By:LifeLongg
Date Added:09-02-2018 05:53:05
Downloads:58

Download Torrent

Ratings:Not Yet Rated (Log in to rate it)


Tracker:
udp://tracker.openbittorrent.com:80/announce


File List: 


Comments

No comments still posted

Powered by 10 Hamsters v2-svn -|- Page Generated In 0.037001 secs.
-|- RSS Feed -|- Feed Info
Theme By: Nikkbu