[Recover Account]

Browse Torrents


You must be logged in to view polls

Latest Torrents
4K YouTube to MP3 ...
- [Size: 28.70 MB]

- [Size: 968.74 MB]

4K Stogram
- [Size: 25.08 MB]

Lion Of The Desert...
- [Size: 3.42 GB]

3DVista Virtual To...
- [Size: 220.75 MB]

Torrent Details For "This.Beautiful.Fantastic.2016.1080p.WEB-DL.DD5.1.H264-FGT-[HDSector]"


Download this torrent | Magnet Download
Seeds: 152
Leechers: 28
Completed: 23,750 
Last Checked: 25-06-2017 19:45:39
External Torrent
Update Stats

Watch-Free-HD     Download


Imdb Picture Title: This Beautiful Fantastic
Year: 2016
Runtime: 100 minutes
Votes: 342
Rating: 7.0/10
Language: Scottish Gaelic, English
Country: UK, USA
All Genres: Comedy, Drama, Fantasy, Romance
Plot Outline: A young woman who dreams of being a children's author makes an unlikely friendship with a cantankerous, rich old widower.
Tagline: life blooms in enchanting ways
Director: Simon Aboud
Writing By: Simon Aboud,
Produced By: Christine Alderson,Monika Bacardi,Peter Hampden,Phil Hunt,Andrea Iervolino,Norman Merry,Kami Naghdi,Compton Ross,Iliane Ogilvie Thompson,Vanessa Tovell,Matt Treadwell,
Music: Anne Nikitin

A young woman who dreams of being a children's author makes an unlikely friendship with a cantankerous, rich old widower.

- Written by BritishFilms1
Jessica Brown Findlay as Bella Brown
Jeremy Irvine as Billy
Andrew Scott as Vernon
Tom Wilkinson as Alfie Stephenson
Anna Chancellor as Bramble
Sheila Hancock as Mother Superior
Eileen Davies as Milly
Charlotte Asprey as Publisher
Paul Blackwell as Library person
Tia Shenton as Background Artist - Orphan
Official Trailer

Watch-Free-HD     Download


ID                                       : 1
Format                                   : AVC
Format/Info                              : Advanced Video Codec
Format profile                           : [email protected]
Format settings, CABAC                   : Yes
Format settings, ReFrames                : 5 frames
Codec ID                                 : V_MPEG4/ISO/AVC
Duration                                 : 1h 31mn
Bit rate                                 : 4 474 Kbps
Width                                    : 1 920 pixels
Height                                   : 804 pixels
Display aspect ratio                     : 2.40:1
Frame rate mode                          : Constant
Frame rate                               : 24.000 fps
Color space                              : YUV
Chroma subsampling                       : 4:2:0
Bit depth                                : 8 bits
Scan type                                : Progressive
Bits/(Pixel*Frame)                       : 0.121
Stream size                              : 2.86 GiB (90%)
Title                                    : This.Beautiful.Fantastic.2016.1080p.WEB-DL.DD5.1.H264-FGT
Language                                 : English
Default                                  : Yes
Forced                                   : No
Color range                              : Limited
Color primaries                          : BT.709
Transfer characteristics                 : BT.709
Matrix coefficients                      : BT.709

ID                                       : 2
Format                                   : AC-3
Format/Info                              : Audio Coding 3
Mode extension                           : CM (complete main)
Format settings, Endianness              : Big
Codec ID                                 : A_AC3
Duration                                 : 1h 31mn
Bit rate mode                            : Constant
Bit rate                                 : 384 Kbps
Channel(s)                               : 6 channels
Channel positions                        : Front: L C R, Side: L R, LFE
Sampling rate                            : 48.0 KHz
Frame rate                               : 31.250 fps (1536 spf)
Compression mode                         : Lossy
Stream size                              : 251 MiB (8%)
Language                                 : English
Default                                  : Yes
Forced                                   : No


Category:Movies > WEB-HD
Lang:English  English
Total Size:3.17 GB
Info Hash:2b516db0eaf8c738838f33721161f3afa028ba4f
Added By:Unknown
Date Added:13-05-2017 15:20:02

Download Torrent

Ratings:Not Yet Rated (Log in to rate it)


File List: 


No comments still posted

Powered by 10 Hamsters v2-svn -|- Page Generated In 1.053739 secs.
-|- RSS Feed -|- Feed Info
Theme By: Nikkbu